<?xml version="1.0" encoding="UTF-8" standalone="no"?>
<!DOCTYPE svg  PUBLIC '-//W3C//DTD SVG 1.1//EN'  'http://www.w3.org/Graphics/SVG/1.1/DTD/svg11.dtd'>
<svg version="1.1" xmlns="http://www.w3.org/2000/svg">
<defs>
<font id="HelveticaConBQ-Medium" horiz-adv-x="396">
<font-face ascent="800" font-weight="500" underline-position="-150" underline-thickness="50" bbox="-67 -262 827 882" x-height="528" font-family="Q" cap-height="702" unicode-range="U+0020-00FC" units-per-em="1000" panose-1="0 0 0 0 0 0 0 0 0 0" descent="-200"/>
<missing-glyph/>
<glyph glyph-name="space" unicode=" " horiz-adv-x="208"/>
<glyph glyph-name="exclam" d="M84 700h107v-424l-16 -98h-74l-17 92v430zM83 128h107v-128h-107v128z" unicode="!" horiz-adv-x="229"/>
<glyph glyph-name="quotedbl" d="M316 421h-27l-47 248v7q-1 6 -1 14t1 14q4 17 20 31t44 14q24 0 40 -14q12 -12 15 -23q3 -9 2 -32zM108 421h-27l-47 248q-4 14 -1 32t19 33t46 15q19 0 35.5 -10.5t20.5 -29.5q2 -9 1 -29z" unicode='&quot;'/>
<glyph glyph-name="numbersign" d="M560 215h-136l-31 -215h-100l31 215h-99l-30 -215h-101l28 215h-121v100h135l13 94h-125v99h138l28 198h103l-28 -198h98l30 198h99l-28 -198h118v-99h-132l-13 -94h123v-100zM337 315l14 94h-99l-13 -94h98z" unicode="#" horiz-adv-x="583"/>
<glyph glyph-name="dollar" d="M28 248h104q0 -48 1 -73q1 -37 9.5 -53t27.5 -24q16 -8 36 -8q21 0 36 8t21 20.5t8 23t2 20.5q0 31 -14 56q-6 12 -13 22.5t-18 21.5t-18 17.5t-22.5 19t-20.5 17.5q-5 3 -27 23t-51.5 55t-41.5 63q-12 26 -12 69q0 119 72 159q9 5 21.5 9t21 6t18 4t10.5 2v69h52l1 -72 q35 -5 55 -14q29 -13 47 -37.5t23.5 -52t7.5 -59.5t0 -61h-102q0 41 -2 63q-2 48 -27 63q-15 10 -32 10q-20 0 -39 -17t-19 -53q0 -24 11 -48q3 -7 6 -12.5t8.5 -12t8.5 -10t12 -11t12.5 -10.5t16.5 -14t19 -16q57 -51 74 -70q75 -78 75 -167q0 -76 -34 -123 q-12 -17 -28 -27q-29 -21 -93 -32v-84h-52l-1 86q-39 4 -63 13t-46 33q-27 29 -34 72t-7 136z" unicode="$" horiz-adv-x="417"/>
<glyph glyph-name="percent" d="M18 395v161q-1 32 1 53t13.5 46t34.5 38q26 15 65 15q19 0 37 -3q60 -10 76 -65q8 -27 10 -141v-63q0 -38 -2 -57q-1 -17 -2.5 -26.5t-8.5 -30t-18 -32.5t-33 -22t-52 -10q-73 0 -103 45q-12 23 -14 32q-6 22 -4 60zM442 698h68l-291 -697h-65zM408 169q0 44 2 132 q2 63 13 88q22 57 104 57q69 0 96 -38q11 -16 16 -35q6 -24 6 -156q0 -101 -4 -131q-13 -93 -114 -93q-73 0 -101 51q-17 31 -18 125zM169 401v166q0 74 -33 74q-11 0 -17 -6q-17 -13 -17 -70v-168q0 -39 5 -51q9 -21 29 -21q34 1 33 71v3v2zM560 138v166q3 74 -32 74 q-11 0 -17 -6q-17 -13 -17 -70v-168q0 -41 5 -52q9 -20 28 -20q6 0 11 2t8 5.5t6 7.5t4 10t2 10.5t1.5 11.5t0.5 10.5v10.5v8z" unicode="%" horiz-adv-x="667"/>
<glyph glyph-name="ampersand" d="M281 399l65 -139l25 142h88q-8 -92 -17.5 -138t-39.5 -130l63 -135h-124l-16 43q-6 -6 -25 -18q-49 -30 -103 -30q-63 0 -100 30t-54 66q-24 46 -24 116q0 48 14 81.5t46 72.5q24 29 39 44q10 9 31 24q-44 92 -44 144q0 48 27 81q43 54 118 54q31 0 60 -11 q84 -31 84 -121q-3 -34 -14 -60q-3 -7 -7.5 -14.5t-10 -15t-9.5 -13t-11.5 -13.5t-11.5 -12.5t-13 -13t-12 -11.5t-12.5 -12t-11.5 -11zM281 138l-87 194q-23 -27 -33.5 -41.5t-21.5 -40t-11 -51.5q0 -55 40 -85q20 -17 46 -17q32 1 67 41zM243 485q28 36 38 54t10 37 t-11.5 32.5t-28.5 13.5q-14 0 -27.5 -11.5t-13.5 -35.5q0 -7 1 -13.5t5 -16t6.5 -16t9.5 -21.5t11 -23z" unicode="&amp;" horiz-adv-x="479"/>
<glyph glyph-name="quotesingle" d="M118 421h-27l-47 248v35q3 16 19.5 30.5t45.5 14.5q19 0 35 -10.5t20 -29.5q3 -9 1 -29z" unicode="&apos;" horiz-adv-x="208"/>
<glyph glyph-name="parenleft" d="M190 706l-1 -101q-25 -21 -30 -34.5t-7 -66.5v-518q4 -29 10.5 -42t27.5 -34v-90q-27 7 -41.5 12t-32.5 16t-33 29q-21 25 -32.5 60.5t-13.5 59t-3 70.5q0 155 -1 233q-2 50 -2 76q0 67 11 173q5 31 15 54q6 14 14.5 27t16 21.5t19 17t18.5 12.5t19.5 9.5t17 7t16.5 4.5z " unicode="(" horiz-adv-x="208"/>
<glyph glyph-name="parenright" d="M22 616v89q40 -8 60 -18q27 -13 49.5 -39.5t31.5 -56.5q4 -10 10 -50q7 -117 7 -150q0 -23 -0.5 -69.5t-0.5 -69.5v-51v-59.5v-50.5q-1 -14 -2 -41t-2 -40q-6 -37 -11 -57.5t-18.5 -47t-33.5 -43.5q-32 -27 -91 -40v98q19 12 25 20.5t12 30.5q5 199 4 340q0 75 -2 227 q-4 30 -10.5 44t-27.5 34z" unicode=")" horiz-adv-x="208"/>
<glyph glyph-name="asterisk" d="M88 570l-67 40l39 60l63 -42v74h70v-71l62 36l37 -58l-71 -43l72 -41l-41 -58l-59 42v-73h-70v76l-62 -44l-43 59z" unicode="*" horiz-adv-x="313"/>
<glyph glyph-name="plus" d="M469 240h-167v-168h-103v168h-168v102h168v168h103v-168h167v-102z" unicode="+" horiz-adv-x="500"/>
<glyph glyph-name="comma" d="M38 -54l53 54h-50v128h108v-124l-111 -113v55z" unicode="," horiz-adv-x="187"/>
<glyph glyph-name="hyphen" d="M33 319h175v-96h-175v96z" unicode="-" horiz-adv-x="250"/>
<glyph glyph-name="period" d="M38 128h108v-127h-108v127z" unicode="." horiz-adv-x="187"/>
<glyph glyph-name="slash" d="M185 701h62l-182 -701h-64z" unicode="/" horiz-adv-x="250"/>
<glyph glyph-name="zero" d="M22 245v225q1 76 7 114.5t26 65.5q12 16 32 31q43 28 108 28q141 0 167 -116q7 -29 8 -122v-209q0 -81 -1 -97q-4 -86 -47 -130q-44 -44 -123 -44q-104 0 -148 69q-18 29 -23 66.5t-6 118.5zM253 242v257q-1 67 -11 89q-14 31 -45 31q-37 0 -49 -39q-6 -20 -6 -96v-316 q5 -64 30 -79q15 -8 27 -7q38 0 48 43q4 16 6 117z" unicode="0"/>
<glyph glyph-name="one" d="M158 701h104v-701h-116v575h-77v77q59 8 79 32q6 8 10 17z" unicode="1"/>
<glyph glyph-name="two" d="M144 457h-116v47q0 23 1 34q5 77 38 116q44 52 134 52q81 0 122 -41q48 -45 48 -124q0 -57 -20 -97.5t-65 -95.5q-19 -22 -55 -66q-44 -57 -60.5 -93.5t-23.5 -78.5h216v-110h-340q0 73 8 117q3 21 8.5 41.5t13.5 39.5t15 35.5t17.5 33.5t17.5 28.5t18.5 26.5t16 21 t14.5 18l10 12q28 32 41 48q48 67 48 119q0 45 -27 63q-13 8 -28 8q-16 0 -28 -9q-24 -17 -24 -66v-79z" unicode="2"/>
<glyph glyph-name="three" d="M18 244h113v-64q0 -45 6 -63q12 -34 51 -34q23 0 37 14q20 20 20 80q0 50 -2 75q-2 43 -20 61t-62 18h-33v88h36q36 6 47 15q23 20 23 73q0 71 -14 93q-12 21 -39 20q-13 0 -29 -8q-22 -16 -22 -71v-43h-110v40q0 53 10 82q30 91 154 91q115 0 149 -83q16 -37 16 -110 q0 -57 -9 -84q-8 -20 -20.5 -32.5t-34.5 -26.5q23 -10 34 -18q17 -13 26.5 -32.5t12 -34.5t3.5 -41q0 -9 0.5 -27.5t0.5 -28.5q0 -61 -8.5 -94t-29.5 -58q-43 -50 -137 -50q-87 0 -128 41q-19 19 -28.5 47.5t-11 48.5t-1.5 56v60z" unicode="3"/>
<glyph glyph-name="four" d="M15 239l200 462h107v-456h51v-91h-51v-154h-107v154h-200v85zM112 245h103v100q3 88 3 89q1 32 7 92q-48 -121 -113 -281z" unicode="4"/>
<glyph glyph-name="five" d="M137 331l-102 3v367h321v-99h-219l1 -144q42 25 81 25q49 0 86 -24q29 -19 43.5 -51t17 -57.5t1.5 -67.5v-93q0 -34 -1.5 -54.5t-10 -47.5t-24.5 -46q-43 -52 -141 -52q-130 0 -157 96q-7 23 -7 78v80h111v-54q0 -60 10 -80q13 -29 45 -29q21 0 35 14q5 5 9 11t6 13.5 t3.5 12.5t2.5 15t1 14t0.5 15t0.5 13q0 9 0.5 26.5t0.5 26.5q0 92 -14 118q-17 30 -47 30q-34 0 -47 -35q-1 -2 -6 -24z" unicode="5"/>
<glyph glyph-name="six" d="M364 540h-115q0 36 -6 52q-14 30 -47 30q-11 0 -21 -4q-25 -8 -32 -40q-4 -18 -6 -122q44 25 83 25q58 0 92 -29q26 -22 39.5 -59t16 -65t2.5 -72q0 -62 -2 -92q-2 -24 -4 -39.5t-12.5 -44.5t-26.5 -46t-49 -31t-77 -14q-68 0 -112 26q-32 19 -48 55.5t-18 63t-1 74.5 v116q0 132 3 198q3 61 11 90t28 51q41 47 132 47q131 0 160 -90q10 -31 10 -80zM137 223q0 -41 1 -61q2 -46 20 -63q15 -14 35 -14q35 1 50 32q3 6 5 12.5t3 11.5t1.5 15t1 16t0.5 20.5v22.5q1 15 1 45q0 80 -16 105q-15 25 -44 25q-19 0 -33 -11q-25 -20 -25 -92v-20v-23.5 v-20.5z" unicode="6"/>
<glyph glyph-name="seven" d="M12 701h347v-89q-32 -82 -53 -145q-73 -220 -78 -467h-131q10 110 13 132q22 161 80 326q11 33 50 134h-228v109z" unicode="7"/>
<glyph glyph-name="eight" d="M110 383q-29 10 -41 23q-36 34 -36 127q0 88 32 127q38 49 135 49q94 0 132 -54q28 -41 28 -114q0 -61 -9 -89q-14 -47 -64 -69q41 -14 59 -37q7 -10 18 -37q7 -29 7 -115q0 -101 -33 -145q-41 -58 -139 -58q-107 0 -149 59q-13 21 -19 43q-12 38 -12 110q0 15 2 45 q4 74 39 105q16 15 50 30zM135 200q0 -28 1 -42v-5q1 -5 1.5 -10t2.5 -12.5t4.5 -13.5t7 -13t10.5 -11.5t14.5 -7.5t18.5 -3q26 0 39 14q22 22 22 104q0 84 -12 106q-15 27 -46 27q-42 0 -56 -46q-8 -31 -7 -87zM150 526q0 -25 1 -38l1 -4q0 -5 0.5 -8.5t2 -9.5t3.5 -10.5 t5.5 -10t8 -9t11.5 -5.5t15 -2q30 0 39 31q6 21 6 84q0 79 -46 79q-26 -4 -36 -21q-11 -21 -11 -76z" unicode="8"/>
<glyph glyph-name="nine" d="M25 161h119v-22q0 -14 4 -27q10 -33 46 -33q39 0 48 45q2 11 4 114q-42 -21 -79 -21q-52 0 -88.5 28.5t-50.5 78.5q-11 47 -11 153q0 124 31 171q43 63 147 63q63 -1 100 -24.5t51 -56.5q13 -29 16 -70.5t3 -130.5v-145q0 -64 -1 -96q0 -26 -3 -52q-18 -147 -164 -147 q-81 0 -124 37q-46 39 -48 135zM133 467q0 -59 3 -88q7 -65 55 -65q39 0 51 40q2 7 4 18l1 11q1 27 1 81q0 58 -2 88v4q-1 5 -1.5 8.5t-1.5 9.5t-3 10.5t-4.5 10.5t-7 10.5t-9.5 8.5t-12 6t-16 2q-40 0 -52 -45q-6 -23 -6 -110z" unicode="9"/>
<glyph glyph-name="colon" d="M80 129h109v-128h-109v128zM81 456h109v-128h-109v128z" unicode=":" horiz-adv-x="229"/>
<glyph glyph-name="semicolon" d="M79 -52l51 52h-47v129h107v-125l-111 -113v57zM83 455h107v-129h-107v129z" unicode=";" horiz-adv-x="229"/>
<glyph glyph-name="less" d="M500 69l-499 230v105l499 234v-113l-362 -173l362 -172v-111z" unicode="&lt;" horiz-adv-x="500"/>
<glyph glyph-name="equal" d="M500 148h-500v103h500v-103zM500 337h-500v103h500v-103z" unicode="=" horiz-adv-x="500"/>
<glyph glyph-name="greater" d="M1 70v111l363 172l-363 173v113l499 -234v-105z" unicode="&gt;" horiz-adv-x="500"/>
<glyph glyph-name="question" d="M240 181l-100 1q13 75 29 110.5t64 96.5q25 31 35 44.5t22.5 41.5t12.5 53q0 38 -25 58q-16 14 -37 14t-34 -10q-14 -11 -17.5 -31t-4.5 -70h-102q0 56 1 84q4 52 26 82q37 50 140 50q42 0 74 -12q31 -13 52 -34.5t30 -46t12 -42t3 -32.5q0 -35 -11 -67 q-30 -85 -100 -161l-27 -30q-23 -29 -43 -99zM134 129h108v-129h-108v129z" unicode="?" horiz-adv-x="458"/>
<glyph glyph-name="at" d="M561 448l12 51h79l-33 -155q-28 -131 -28 -169q0 -17 7.5 -26t16.5 -9q5 0 15 3q21 9 43 34q40 46 61.5 112.5t21.5 127.5q0 64 -22 110q-23 50 -76 84.5t-138 34.5q-124 0 -230 -87q-57 -47 -104.5 -129.5t-47.5 -193.5q0 -138 91 -217q88 -76 225 -76q107 0 214 58 q38 23 61 40q29 23 54 48l40 -51q-54 -51 -103 -82q-123 -79 -263 -79q-144 0 -244 69q-38 27 -66 59q-78 93 -78 229q0 154 84 277q20 26 22 28q22 28 50.5 54.5t72 55t103.5 46t127 17.5q74 0 132 -23q28 -11 54 -30t53 -50t43.5 -79.5t16.5 -106.5q0 -20 -3 -46.5 t-13 -72.5t-36 -95t-64 -85q-57 -56 -120 -56q-51 0 -75 40q-5 9 -10 37q-65 -76 -133 -76q-27 0 -54 10q-53 22 -72 82q-11 31 -11 76q0 111 66 199q62 85 147 85q53 0 88 -37q6 -6 11.5 -14.5t9.5 -15.5zM532 349q0 22 -5 38q-8 25 -27 41t-43 16q-49 0 -84 -53 q-46 -65 -46 -153q0 -47 22 -69.5t50 -22.5q47 0 87 54q46 67 46 149z" unicode="@" horiz-adv-x="896"/>
<glyph glyph-name="A" d="M118 700h156l122 -700h-117l-29 189h-105l-26 -189h-116zM160 288h75l-43 330q-4 -81 -12 -162q-7 -75 -20 -168z" unicode="A"/>
<glyph glyph-name="B" d="M47 700h196q57 -8 75 -18q58 -31 58 -149q0 -55 -3 -79.5t-14 -45.5q-9 -18 -19.5 -26t-31.5 -16q18 0 37 -14q42 -33 42 -128q0 -56 -6 -99q-8 -65 -44 -94q-39 -30 -118 -30q-8 0 -24 0.5t-24 0.5h-124v698zM163 313v-217q74 0 91 22q10 14 12.5 31t2.5 58q0 39 -8 64 q-8 26 -28 34t-70 8zM164 605v-196q64 0 79 19q19 23 19 89q0 36 -10 60q-10 22 -25.5 26t-62.5 2z" unicode="B" horiz-adv-x="417"/>
<glyph glyph-name="C" d="M384 473h-115q-1 11 -1.5 34t-0.5 34q0 48 -22 66q-16 11 -33 11q-15 0 -27 -7q-24 -13 -28 -63q-5 -110 -5 -198q0 -91 3 -184q2 -50 23 -65q13 -13 37 -13q19 0 32 14q6 7 10 15t6 18.5t2.5 17.5t0.5 20.5v17.5q0 11 0.5 32.5t0.5 31.5h114v-99q0 -40 -7 -62 q-11 -42 -48.5 -72t-108.5 -31q-77 0 -119 28q-17 12 -29 27q-15 19 -22 41q-9 28 -11 75q-4 130 -4 197q0 39 2 115q4 67 7 103q6 32 13 49q26 63 112 80q36 4 55 4q57 0 98 -27q21 -15 36 -34q14 -19 20.5 -46t7 -48t1.5 -82z" unicode="C"/>
<glyph glyph-name="D" d="M45 697h215q34 -2 55.5 -7.5t40.5 -23.5q23 -21 32 -56.5t12 -106.5q3 -174 3 -175q0 -86 -7 -207q-7 -38 -13 -52q-10 -23 -24.5 -37.5t-36.5 -20.5t-38.5 -8t-46.5 -2h-192v696zM160 610l1 -520q83 -2 101 19q19 21 19 94v317q0 71 -40 84q-18 6 -81 6z" unicode="D" horiz-adv-x="437"/>
<glyph glyph-name="E" d="M46 698h323v-107h-205v-179h193v-101h-193v-202h214v-109h-332v698z" unicode="E"/>
<glyph glyph-name="F" d="M47 701h323v-107h-205v-181h186v-101h-186v-312h-118v701z" unicode="F" horiz-adv-x="375"/>
<glyph glyph-name="G" d="M378 489h-108q-1 8 -1.5 23.5t-0.5 23.5q0 21 -5 33q-2 7 -6.5 14t-16 15t-26.5 8q-10 0 -27 -7q-24 -13 -29 -60q-6 -138 -6 -206q0 -73 7 -176q2 -14 4 -22q8 -43 50 -43q24 0 39.5 18.5t15.5 58.5q0 9 -0.5 27.5t-0.5 28.5q0 9 0.5 26t0.5 25h-53v105h163v-381h-102 v41q-26 -26 -46 -37.5t-50 -12.5q-15 0 -33 3q-51 9 -80 49q-26 41 -30 126q-4 118 -4 178q0 34 5 204q5 64 28 97q30 42 101 54q30 5 57 5q23 0 44 -4q86 -23 103 -90q7 -28 7 -124z" unicode="G" horiz-adv-x="417"/>
<glyph glyph-name="H" d="M45 701h120v-286h109v286h117v-701h-117v316h-110v-315h-119v700z" unicode="H" horiz-adv-x="437"/>
<glyph glyph-name="I" d="M45 702h118v-703h-118v703z" unicode="I" horiz-adv-x="208"/>
<glyph glyph-name="J" d="M23 257h113v-107q0 -14 2 -25q9 -31 34 -31q15 3 21 6q17 11 17 50v550h118v-585q-7 -58 -32 -83q-40 -40 -122 -40q-77 0 -116 38q-23 20 -31 52q-4 16 -4 48v127z" unicode="J" horiz-adv-x="375"/>
<glyph glyph-name="K" d="M45 701h115v-308l141 308h132l-154 -300l165 -401h-132l-112 294l-40 -89v-204h-115v700z" unicode="K" horiz-adv-x="437"/>
<glyph glyph-name="L" d="M45 701h119v-592h199v-109h-318v701z" unicode="L" horiz-adv-x="375"/>
<glyph glyph-name="M" d="M43 701l185 -1q28 -150 38 -221q10 -70 24 -217q5 84 14 142q4 26 13 75.5t12 67.5q14 78 24 154h182v-702h-111l5 594l-107 -593h-66l-104 592v-592h-109v701z" unicode="M" horiz-adv-x="583"/>
<glyph glyph-name="N" d="M44 702h131q26 -96 44 -155q37 -120 44 -148q17 -64 46 -204q-2 37 -4.5 110t-3.5 105l-1 292h110v-703h-129q-54 176 -77 264q-21 80 -63 262q8 -156 9 -232q3 -98 3 -293h-109v702z" unicode="N" horiz-adv-x="458"/>
<glyph glyph-name="O" d="M34 327q0 58 2 180q2 104 30 141q13 19 38 34q45 27 105 27q29 0 56 -6q90 -17 110 -101q6 -24 7 -113q0 -12 0.5 -36.5t0.5 -37.5q1 -42 1 -126q0 -78 -1 -116q-1 -34 -2.5 -48t-9.5 -37.5t-23 -42.5q-42 -52 -141 -52q-67 0 -110 29q-14 9 -30 29q-16 23 -26 72 q-7 44 -7 204zM153 409v-141q0 -56 1 -83q2 -49 9 -67q14 -32 50 -32q15 0 27 8q19 12 23 50q5 35 5 162q0 31 -0.5 92.5t-0.5 91.5q0 84 -12 107q-16 23 -41 23q-50 0 -58 -55q-3 -18 -3 -156z" unicode="O" horiz-adv-x="417"/>
<glyph glyph-name="P" d="M43 701h214q30 -1 48 -6q56 -16 73 -78q10 -41 10 -123q0 -123 -61 -162q-35 -22 -167 -20v-313h-117v702zM160 607l1 -196q43 0 52 1q31 2 42 20q15 20 15 77q0 70 -22 87q-12 10 -38 10q-17 1 -50 1z" unicode="P"/>
<glyph glyph-name="Q" d="M287 -31h19h21v-96h-89q-47 0 -64 19q-8 8 -12 20q-1 3 -1.5 17t-1 35t-1.5 34q-6 1 -26 8q-39 12 -62 43q-14 17 -21.5 41.5t-9.5 42t-4 49.5q-3 177 -3 178q0 64 2 96q1 61 6 124q11 57 42 85q46 44 135 44q84 0 127 -47q18 -19 25 -43q11 -31 11 -68q5 -128 5 -229 q0 -94 -6 -187q-3 -23 -8 -45q-8 -28 -26.5 -46.5t-35 -26.5t-49.5 -19q3 -16 8.5 -22.5t18.5 -6.5zM153 226q0 -21 2 -67q4 -36 10 -47q15 -25 45 -25q37 1 49 38q3 7 4 16t1.5 19t0.5 23.5v29.5q2 72 2 109q0 30 -0.5 89t-0.5 88q3 73 -12 97q-13 23 -39 23 q-13 0 -29.5 -8.5t-24.5 -28.5q-4 -8 -5.5 -19t-2 -18.5t0 -29t0.5 -34.5q0 -38 -2 -112q0 -97 1 -143z" unicode="Q" horiz-adv-x="417"/>
<glyph glyph-name="R" d="M44 701h215q54 -9 73 -21q52 -33 52 -153q0 -82 -7 -102q-5 -12 -12 -22q-16 -16 -24 -20q-7 -5 -30 -12q27 -7 41 -21q23 -21 25 -77l4 -234l6 -40h-121l-3 50v184q-2 58 -25 74q-18 13 -75 13v-320h-119v701zM163 605v-192q64 0 81 10q26 17 26 88q0 50 -7 65 q-13 29 -58 29h-42z" unicode="R" horiz-adv-x="417"/>
<glyph glyph-name="S" d="M25 257h112v-53q2 -48 9 -70t26 -33q19 -8 34 -8q47 0 56 48q3 12 3 30q0 45 -30 77q-20 23 -76 71q-66 56 -91 90q-37 54 -37 126q0 174 174 174q18 0 36 -3t43.5 -12.5t45.5 -34.5t28 -62q6 -25 5 -91v-37h-112q0 84 -9 104q-15 33 -48 33q-23 0 -36.5 -18.5 t-13.5 -44.5q0 -19 6 -31q10 -32 82 -95q83 -72 108 -102q21 -27 31.5 -57.5t10.5 -85.5q0 -74 -25 -112q-43 -71 -155 -71q-88 0 -135 47q-17 17 -26.5 46t-12 49.5t-3.5 54.5v71z" unicode="S"/>
<glyph glyph-name="T" d="M7 700h362v-108h-123v-593h-116v593h-123v108z" unicode="T" horiz-adv-x="375"/>
<glyph glyph-name="U" d="M47 701h116v-535q0 -50 24 -68q12 -10 32 -10q16 0 31 9q23 17 25 69v535h118v-526q0 -65 -12 -97q-33 -87 -165 -87q-91 0 -134 50q-35 40 -35 138v522z" unicode="U" horiz-adv-x="437"/>
<glyph glyph-name="V" d="M255 700h118l-108 -701h-153l-110 701l121 -1q35 -244 44 -333q11 -109 20 -261q10 141 18 215q2 16 27 206q4 29 11.5 87t11.5 87z" unicode="V" horiz-adv-x="375"/>
<glyph glyph-name="W" d="M236 701h126q16 -138 26 -208q19 -138 23 -173q6 -59 12 -177l56 558h119l-106 -702h-133q-23 178 -24 185q-14 98 -19 147q-7 60 -17 190q-14 -172 -23 -262q-13 -125 -30 -260h-136l-108 702l117 -1q28 -196 39 -302q9 -88 21 -266q9 152 20 261q7 74 37 308z" unicode="W" horiz-adv-x="604"/>
<glyph glyph-name="X" d="M147 366l-132 334l125 -1q26 -64 38 -98q20 -62 32 -107l73 206h119l-131 -340l141 -361h-123l-82 247q-35 -123 -84 -246h-121z" unicode="X"/>
<glyph glyph-name="Y" d="M207 426l88 273h122l-153 -422v-277h-117v278l-144 421l122 -1q37 -106 47 -140q9 -29 35 -132z" unicode="Y" horiz-adv-x="417"/>
<glyph glyph-name="Z" d="M13 82l225 510h-201v107h339v-81l-224 -510h226v-109h-365v83z" unicode="Z"/>
<glyph glyph-name="bracketleft" d="M37 702h153v-94h-38v-687h35v-93h-150v874z" unicode="[" horiz-adv-x="208"/>
<glyph glyph-name="backslash" d="M345 -18h-102l-229 724h103z" unicode="\" horiz-adv-x="354"/>
<glyph glyph-name="bracketright" d="M20 -79h39v685h-35v95h151v-873h-155v93z" unicode="]" horiz-adv-x="208"/>
<glyph glyph-name="asciicircum" d="M601 323h-118l-117 246l-121 -246h-117l195 383h91z" unicode="^" horiz-adv-x="729"/>
<glyph glyph-name="underscore" d="M510 -228h-520v103h520v-103z" unicode="_" horiz-adv-x="500"/>
<glyph glyph-name="grave" d="M70 700l44 -121h-83l-97 121h136z" unicode="`" horiz-adv-x="208"/>
<glyph glyph-name="a" d="M127 364h-99q-1 96 19 126q32 47 119 47q68 0 100 -28q16 -14 22 -38t8 -74v-398h-102v41q-12 -19 -17 -24q-21 -22 -67 -22q-57 0 -80 51q-11 25 -11 109v33q2 35 12 57t35 41q15 12 74 47l10 5t9.5 5t7.5 4.5t7 5.5t5 6t5.5 7.5t3 8.5t2.5 11q2 11 2 19q0 25 -15 35 q-15 5 -20 5q-12 0 -19 -10q-14 -18 -11 -70zM192 270q-7 -6 -28 -23l-3 -2q-3 -2 -6 -5t-7 -6.5t-6 -6.5q-16 -18 -16 -67q0 -13 2 -37q2 -27 13 -37q9 -6 17 -6t16 5q14 10 16 29q4 31 2 156z" unicode="a" horiz-adv-x="333"/>
<glyph glyph-name="b" d="M40 701h106v-206q47 38 81 38q32 0 52.5 -15t28.5 -31q8 -15 14 -51q6 -114 6 -169q0 -22 -0.5 -46.5t-1.5 -54.5t-1 -46q-4 -64 -24 -91q-25 -34 -83 -34q-23 0 -38.5 8.5t-38.5 27.5v-31h-101v701zM220 195v128q0 73 -5 90q-11 28 -31 28q-13 0 -21 -9t-10 -16 q-8 -20 -8 -145q0 -72 1 -109q1 -47 11 -64q10 -19 29 -19q8 0 14 3t9.5 10.5t6 14t3 19.5t1 20.5t0.5 24v24.5z" unicode="b" horiz-adv-x="354"/>
<glyph glyph-name="c" d="M325 345h-106q0 81 -10 96q-10 12 -28 12q-11 0 -21 -5q-13 -9 -19 -40q-4 -96 -4 -143q0 -24 5 -139q0 -5 2 -15q6 -30 38 -30q25 0 31.5 15.5t6.5 47.5q0 13 0.5 36t0.5 34l106 -1q0 -50 -1 -75q-2 -70 -28 -101q-12 -15 -35 -28q-36 -14 -80 -14q-85 0 -121 46 q-29 36 -31 120q-2 128 -1 165q1 27 5 83q3 28 9 44q22 61 90 77q26 6 55 6q45 0 75 -17.5t43 -38.5q9 -13 12.5 -35t4 -36t1.5 -64z" unicode="c" horiz-adv-x="354"/>
<glyph glyph-name="d" d="M213 498v203h107v-701h-104v35q-48 -39 -86 -39q-25 0 -46.5 12.5t-32.5 34.5q-8 13 -13 46q-7 96 -7 166q0 80 5 182q6 31 15 49q26 47 84 47q34 0 78 -35zM138 330v-82q0 -127 10 -146q10 -18 26 -17q9 0 15 5q23 16 24 77q1 36 1 111q0 108 -9 136q-6 18 -18 22 q-4 4 -14 4q-19 0 -27 -20q-6 -14 -8 -90z" unicode="d" horiz-adv-x="354"/>
<glyph glyph-name="e" d="M326 351v-104h-186v-104q2 -40 19 -54q11 -8 23 -8q11 0 21 8q21 15 19 59v44h103q2 -99 -15 -136q-29 -59 -133 -59q-85 0 -119 47q-7 10 -11.5 24t-7.5 24t-4.5 29.5t-1.5 26t-0.5 30t-0.5 25.5v65q0 15 0.5 44.5t0.5 44.5q0 58 7 86q24 94 142 94q10 0 22.5 -1 t14.5 -1q56 -9 81 -45q26 -37 26 -139zM140 326h81v77q-2 31 -15 43q-12 10 -24 10t-22 -7q-7 -5 -11.5 -13t-5.5 -12t-3 -19v-79z" unicode="e" horiz-adv-x="354"/>
<glyph glyph-name="f" d="M7 528h42v75q1 44 11 64q14 27 51 34q21 3 92 1v-89q-29 -1 -37.5 -8t-8.5 -24q0 -36 -1 -52h45v-90h-45v-437h-107v437h-42v89z" unicode="f" horiz-adv-x="208"/>
<glyph glyph-name="g" d="M319 530v-495q0 -9 -0.5 -27.5t-0.5 -27.5q-1 -29 -4 -47t-10 -39.5t-23 -35.5t-41 -22q-27 -8 -60 -8q-23 0 -37 2q-74 10 -95 66q-7 19 -9 59h106q0 -37 15 -48q7 -7 18 -6q8 0 18 6q19 12 19 53v69q-40 -37 -85 -37q-70 0 -91 77q-5 20 -6 60v183q1 72 4.5 107.5 t16.5 59.5q27 54 87 54q28 0 51 -17q3 -3 8 -7.5t8 -8t6 -6.5l3 -4v40h102zM140 364v-208v-7.5v-9.5v-9.5t1 -10.5t2.5 -9.5t3.5 -8.5t5.5 -6.5t8 -5t9.5 -1.5q11 0 20 8q20 18 23 95v141q-3 76 -17 93q-9 13 -24 13q-13 0 -22 -14q-10 -16 -10 -60z" unicode="g" horiz-adv-x="354"/>
<glyph glyph-name="h" d="M40 701h106v-209q58 45 98 45q31 0 54 -17q17 -13 26 -33.5t10.5 -36.5t1.5 -43v-408h-107v385q0 56 -36 56q-16 0 -26 -10q-19 -18 -19 -69v-361h-108v701z" unicode="h" horiz-adv-x="375"/>
<glyph glyph-name="i" d="M40 530h107v-529h-107v529zM41 701h107v-102h-107v102z" unicode="i" horiz-adv-x="187"/>
<glyph glyph-name="j" d="M38 -26v557h107v-631q-1 -10 -1.5 -14.5t-4 -15.5t-9 -16.5t-16.5 -11.5t-26 -8q-23 -3 -83 -3v99q24 4 29.5 11.5t3.5 32.5zM38 702h108v-101h-108v101z" unicode="j" horiz-adv-x="187"/>
<glyph glyph-name="k" d="M38 701h106v-380l102 209h120l-112 -214l112 -319l-123 4l-99 294v-295h-106v701z" unicode="k" horiz-adv-x="375"/>
<glyph glyph-name="l" d="M38 701h108v-700h-108v700z" unicode="l" horiz-adv-x="187"/>
<glyph glyph-name="m" d="M38 530h106l2 -40l15 15q33 30 78 30q19 0 33 -5q23 -8 52 -44q10 12 14 16q29 35 74 35q28 0 48 -14q24 -14 31.5 -34t10.5 -54v-435h-106v400q-3 26 -18 33q-6 4 -16 4q-8 0 -19 -8q-18 -16 -18 -56v-373h-107v384q0 24 -4 33q-9 21 -29 21q-8 0 -17 -7 q-19 -15 -24 -65v-366h-106v530z" unicode="m" horiz-adv-x="542"/>
<glyph glyph-name="n" d="M38 529h104l3 -46q2 2 7 7.5t8 8.5q41 37 84 37q27 0 50 -14q23 -15 30.5 -34t10.5 -53v-435h-108v384q0 33 -17 46q-9 6 -20 6q-14 0 -27 -13q-23 -22 -21 -82v-341h-104v529z" unicode="n" horiz-adv-x="375"/>
<glyph glyph-name="o" d="M30 238q0 85 1 127v11.5t0.5 12t0.5 11t0.5 11t1.5 10t2 11t2.5 10t3.5 11t5 10.5t6 11q36 59 124 59q95 0 124 -59q6 -12 10 -27t5.5 -31.5t2 -37t0.5 -44.5v-54q0 -16 0.5 -46t0.5 -46q0 -88 -16 -125q-30 -70 -133 -70q-95 0 -124 69q-17 39 -17 176zM213 172v138 q0 53 -1 79q0 28 -8 44q-9 17 -27 17q-29 0 -36 -39q-3 -20 -3 -108q-1 -58 0 -118q0 -72 9 -90q10 -18 29 -18q13 0 20 7q16 14 17 77v11z" unicode="o" horiz-adv-x="354"/>
<glyph glyph-name="p" d="M37 530h105v-36q24 22 42 32.5t44 10.5q40 0 67 -33q15 -19 25 -59q8 -126 8 -189l-3 -144q0 -30 -9 -54q-4 -12 -12 -24t-29 -25.5t-47 -13.5q-37 0 -83 37v-203h-108v701zM144 255q0 -100 7 -129q0 -3 2.5 -11t10.5 -17.5t20 -9.5q26 0 32 39q3 22 3 146q0 102 -4 129 l-1 4q-1 5 -3 10.5t-5 11.5t-9 10t-13 4q-19 0 -30 -25q-10 -27 -10 -162z" unicode="p" horiz-adv-x="354"/>
<glyph glyph-name="q" d="M216 489v41h104v-705h-110v205q-46 -35 -80 -35q-42 0 -71 36q-19 25 -26 81q-4 106 -4 159q0 69 5 156q6 35 13 49q8 19 29.5 37.5t56.5 18.5q26 0 43 -10t40 -33zM214 172v170q-3 70 -22 88q-9 9 -21 9q-25 0 -32 -39q-3 -18 -3 -85v-142q0 -41 5 -58q8 -31 34 -31 q9 0 17 6q20 15 22 82z" unicode="q" horiz-adv-x="354"/>
<glyph glyph-name="r" d="M39 529h104l-3 -100q12 42 26 63q18 27 40.5 35t63.5 12l-1 -127q-20 1 -37.5 1.5t-34 -6t-28.5 -20.5q-18 -22 -20 -66v-320h-110v528z" unicode="r" horiz-adv-x="271"/>
<glyph glyph-name="s" d="M21 201h98q-2 -90 10 -108q11 -19 38 -19q18 0 29 13.5t13 24.5t2 20q0 15 -4 25q-2 6 -4.5 11t-4.5 8.5t-8 10t-8.5 9.5t-12 12t-14.5 14q-20 20 -58 56q-3 3 -9 8.5t-9 8.5q-54 47 -54 112q0 31 13 61q29 66 126 66q87 0 117 -47q26 -41 22 -126l-95 1q3 94 -44 94 q-17 0 -28 -13t-11 -29q0 -6 3 -13t5.5 -12t9 -12.5t10 -10.5t12 -11t10.5 -10q24 -26 35 -37q5 -5 17.5 -15t18.5 -16q64 -60 64 -134q0 -76 -26 -108q-33 -41 -124 -41q-111 0 -135 89q-4 20 -4 45v73z" unicode="s" horiz-adv-x="333"/>
<glyph glyph-name="t" d="M5 529h42v139h108v-139h42v-90h-42v-301q2 -40 9 -45q1 -1 22 -6q2 0 6.5 -1.5t6.5 -1.5l-1 -84h-68q-46 -2 -63 16q-10 8 -14 20q-4 16 -4 34v369h-44v90z" unicode="t" horiz-adv-x="208"/>
<glyph glyph-name="u" d="M41 529h109v-385q-2 -31 12 -43q9 -7 21 -7t22 9q18 15 22 58l5 369h105v-529h-103l-1 46q-56 -52 -104 -52q-26 0 -49 14q-23 16 -30 35.5t-9 53.5v431z" unicode="u" horiz-adv-x="375"/>
<glyph glyph-name="v" d="M204 530h104l-78 -528h-149l-78 528h105q22 -162 30 -243q7 -68 17 -202q2 23 5.5 63t6.5 73.5t6 62.5q9 82 31 246z" unicode="v" horiz-adv-x="313"/>
<glyph glyph-name="w" d="M104 529l41 -392q12 136 20 199q5 38 15 109t12 84l91 -1q22 -127 30 -197q11 -88 19 -198l40 395h106l-86 -529h-106q-21 128 -28 184q-7 63 -17 182q-8 -92 -19 -166q-1 -10 -33 -199h-105l-83 529h103z" unicode="w" horiz-adv-x="479"/>
<glyph glyph-name="x" d="M121 280l-110 249l112 -1q7 -15 31 -76q5 -12 13 -35.5t13 -35.5q18 73 51 148h115l-116 -256l124 -273h-112q-43 98 -67 178q-9 -30 -29 -90q-22 -58 -34 -87h-111z" unicode="x" horiz-adv-x="354"/>
<glyph glyph-name="y" d="M200 528h108l-12 -81l-44 -273l-5 -32l-45 -239q-4 -19 -13 -35q-21 -40 -73 -40h-84v94q18 2 28 2q23 0 29 6q5 5 5 21v15l-3 18l-33 209l-6 32l-50 303l108 -1q27 -214 32 -266q6 -59 16 -193q8 127 14 187q8 91 28 273z" unicode="y" horiz-adv-x="313"/>
<glyph glyph-name="z" d="M8 92l169 335h-150v102h269v-92l-168 -335h168v-103h-288v93z" unicode="z" horiz-adv-x="313"/>
<glyph glyph-name="braceleft" d="M126 414v124q1 94 13 124q7 21 23 39q17 20 41 31q34 14 136 16v-7q-50 -11 -73 -34q-20 -20 -25.5 -47.5t-5.5 -86.5v-96q0 -63 -2 -95q-2 -59 -26 -91q-14 -19 -30 -27q-14 -8 -37 -15q29 -10 38 -16q37 -23 49 -63q9 -29 9 -138v-109q0 -54 5.5 -82.5t23.5 -46.5 q20 -22 74 -38v-6q-106 2 -143 20q-36 18 -55 59q-13 29 -14 117v128q0 57 -3.5 84t-17.5 49q-17 26 -54 39v7q34 9 50 30q16 22 20 48t4 83z" unicode="{" horiz-adv-x="354"/>
<glyph glyph-name="bar" d="M166 -250h-103v998h103v-998z" unicode="|" horiz-adv-x="229"/>
<glyph glyph-name="braceright" d="M228 83v-124q0 -88 -12 -123q-5 -20 -26 -41q-22 -22 -40 -30q-35 -15 -135 -15v6q60 15 83 45q13 19 17 45t4 78v97q0 63 2 95q5 73 39 105q17 16 55 27q-45 15 -67 42q-26 30 -28 84q-1 18 -1.5 49.5t-0.5 41.5v109q0 59 -6.5 88t-29.5 49q-20 17 -67 30v7 q79 -2 117 -11t62 -38q21 -25 26.5 -54.5t6.5 -93.5v-128q0 -34 1 -51q0 -77 44 -107q5 -4 11.5 -6.5t12 -5t6.5 -2.5v-6q-41 -13 -58 -44q-16 -32 -16 -118z" unicode="}" horiz-adv-x="354"/>
<glyph glyph-name="asciitilde" d="M368 238l-31 15q-50 23 -77 23q-18 0 -34 -7q-10 -4 -20.5 -13t-18.5 -17.5t-26 -30.5l-47 87q59 89 145 89q38 0 106 -32l35 -16q50 -21 72 -21q47 0 98 62l46 -89q-14 -16 -22 -23q-60 -58 -125 -58q-33 0 -101 31z" unicode="~" horiz-adv-x="729"/>
<glyph glyph-name="exclamdown" d="M36 432l20 92h74l16 -90v-433h-110v431zM38 701h110v-127h-110v127z" unicode="¡" horiz-adv-x="229"/>
<glyph glyph-name="sterling" d="M36 398l42 1q-35 93 -35 140t19 82q14 28 37 47.5t48 27t41 10t30 2.5q54 0 95 -28q38 -25 50.5 -68.5t12.5 -133.5h-101q-2 16 -4 52q0 26 -6 42q-1 7 -5.5 15.5t-16.5 17.5t-27 9q-14 0 -29 -9q-27 -18 -27 -60q0 -7 2 -29q6 -35 43 -118h81v-53h-64q25 -57 25 -103 q0 -22 -5 -43q-6 -26 -17.5 -42.5t-35.5 -39.5q35 0 50 -6q7 -3 15 -7t12.5 -6t8.5 -2q6 0 12 5q9 9 27 43l80 -47q-1 -3 -3 -6.5t-4 -7.5l-3 -6q0 -1 -1 -2q-5 -11 -10.5 -20.5t-18 -25.5t-30.5 -25.5t-39 -9.5q-20 0 -41 9q-10 4 -25.5 12.5t-27 12.5t-24.5 4 q-23 0 -69 -18l-44 86q19 10 37 24q42 33 42 92q0 45 -36 129h-61v53z" unicode="£"/>
<glyph glyph-name="currency" d="M562 185l80 -79l-78 -77l-79 80q-26 -16 -38.5 -22.5t-44.5 -15.5t-68 -9q-60 0 -114 25q-17 8 -40 22l-78 -78l-77 77l79 78q-33 55 -40 90q-7 30 -7 65q0 37 9 69.5t15 43.5t22 38l-77 78l77 77l77 -78q2 1 13 7.5t14.5 8.5t14.5 7.5t17.5 8t19 6.5t23 5.5t25 3 t29.5 1.5q16 0 30.5 -1.5t28.5 -5t22.5 -5.5t21.5 -8.5t16.5 -8.5l17.5 -10l14 -8l77 77l78 -77l-79 -78q15 -24 22 -37t16 -45t9 -68q0 -66 -23 -115q-7 -18 -25 -42zM509 340q0 63 -37 111q-55 66 -137 66q-28 0 -57 -9q-58 -19 -89 -65.5t-31 -104.5q0 -59 33 -103 q52 -73 142 -73q68 0 117 44q55 48 59 134z" unicode="¤" horiz-adv-x="667"/>
<glyph glyph-name="brokenbar" d="M63 190h103v-381h-103v381zM63 308v381h103v-381h-103z" unicode="¦" horiz-adv-x="229"/>
<glyph glyph-name="section" d="M403 491h-108q-2 22 -2 31q0 3 -0.5 13.5t-1 14t-1.5 12t-3 12t-4.5 10t-7 11t-10.5 8.5q-20 12 -37 12q-16 0 -33.5 -12t-17.5 -41q0 -35 40 -67q7 -5 19.5 -14t23 -16.5t20.5 -14.5t30 -19.5t30 -18.5q3 -2 47 -38q14 -14 20 -21q33 -36 33 -85q0 -25 -7 -48 q-14 -46 -72 -112q11 -13 20 -26q28 -39 28 -94q0 -61 -33 -105q-46 -60 -139 -60q-116 0 -154 61q-28 44 -23 163h104q0 -56 4.5 -80t23.5 -36q13 -10 35 -10q26 0 42 18.5t16 44.5q0 24 -14 45q-6 8 -14.5 17t-15.5 15t-20.5 15t-19.5 12.5t-21 12.5t-18 11q-30 18 -64 42 q-42 32 -63 64.5t-21 79.5q0 32 12.5 62t26 47.5t41.5 47.5q-14 21 -21 33.5t-12.5 32t-5.5 41.5q0 65 45 105q46 42 133 42q91 0 132 -43q12 -10 23 -33q21 -47 15 -142zM159 394q-13 -14 -19.5 -22.5t-12.5 -23t-6 -30.5q0 -18 9 -33q12 -19 72 -60q7 -5 11 -7 q9 -6 26 -17t31 -20t27 -17q34 43 34 75q0 16 -8 30t-15.5 20.5t-25.5 19.5q-42 32 -123 85z" unicode="§" horiz-adv-x="458"/>
<glyph glyph-name="dieresis" d="M-67 699h100v-121h-100v121zM69 700h99v-122h-99v122z" unicode="¨" horiz-adv-x="208"/>
<glyph glyph-name="copyright" d="M617 510l-72 -68q-8 9 -24 23q-42 36 -96 36q-62 0 -102 -40q-42 -44 -41 -106q0 -28 8 -51q10 -30 29 -51t41 -29.5t37 -11.5t29 -3q20 0 41 6q23 6 39 17t39 33l72 -66q-22 -22 -33 -32q-69 -55 -159 -55q-66 0 -118 26q-13 6 -38 24q-88 68 -88 193q0 86 49 150 q26 35 74.5 64t116.5 29q93 0 157 -51q18 -14 39 -37zM773 351q-1 -82 -31.5 -145t-68.5 -102q-40 -42 -105.5 -74.5t-151.5 -32.5q-132 0 -230 84q-49 41 -87 109t-38 164q0 76 31 146.5t91 122.5q101 86 234 86q89 0 154.5 -33.5t104.5 -75.5q48 -50 72.5 -116t24.5 -133z M740 352q0 27 -4.5 58.5t-29 86.5t-67.5 94q-91 86 -221 86q-136 0 -230.5 -94.5t-94.5 -229.5q0 -118 73 -207q38 -46 101.5 -81.5t149.5 -35.5q108 0 195 64q40 30 66 66q62 85 62 193z" unicode="©" horiz-adv-x="833"/>
<glyph glyph-name="guillemotleft" d="M109 369h99l-81 -99l79 -100h-99l-79 100zM269 369h100l-82 -98l80 -101h-100l-78 100z" unicode="«"/>
<glyph glyph-name="logicalnot" d="M564 242h-564v103h667v-345h-103v242z" unicode="¬" horiz-adv-x="667"/>
<glyph glyph-name="registered" d="M604 130h-109q-1 2 -3 6.5t-3 6.5q-8 20 -21 103q-6 34 -11.5 47.5t-19.5 22.5q-15 9 -61 10h-23v-196h-95v453h155h9q35 0 55 -1.5t47.5 -11.5t44.5 -31q27 -34 27 -76q0 -40 -26 -69q-16 -16 -28 -23q-4 -3 -33 -14q20 -10 30 -20q9 -9 15.5 -24t8.5 -24t5 -30.5 t4 -25.5q11 -66 32 -103zM353 402h58q37 0 55 5.5t27 22.5q8 13 8 28q0 11 -7 27q-7 12 -20.5 18t-22.5 6.5t-28 0.5h-70v-108zM773 351q0 -129 -85 -229q-43 -51 -102 -81.5t-96.5 -37t-72.5 -6.5q-122 0 -218 73q-138 108 -138 284q0 130 81 228q109 127 276 127 q85 0 160 -37t126 -106q71 -95 69 -215zM741 352q0 109 -63 195q-15 20 -34.5 39t-51.5 41.5t-77.5 36t-96.5 13.5q-108 0 -192 -62q-20 -15 -39.5 -34.5t-42.5 -52t-37 -78t-14 -97.5q0 -65 24 -123q37 -91 119.5 -146t181.5 -55q54 0 109 19q97 34 155 117.5t59 186.5z " unicode="®" horiz-adv-x="833"/>
<glyph glyph-name="degree" d="M177 755q72 -1 122 -51.5t50 -121.5t-50.5 -121.5t-121.5 -50.5q-72 0 -122 51t-50 122q0 72 50.5 122t121.5 50zM177 653q-30 0 -51 -21t-21 -50q1 -30 22 -51t50 -21q30 0 51 21.5t21 50.5t-21.5 50t-50.5 21z" unicode="°" horiz-adv-x="354"/>
<glyph glyph-name="plusminus" d="M469 0h-437v103h437v-103zM303 173h-103v168h-168v102h168v168h103v-168h166v-102h-166v-168z" unicode="±" horiz-adv-x="500"/>
<glyph glyph-name="acute" d="M35 701h136l-96 -122h-84z" unicode="´" horiz-adv-x="208"/>
<glyph glyph-name="mu" d="M502 142l32 1q15 -33 15 -71q0 -36 -18 -59.5t-53 -23.5q-41 0 -68 37q-15 20 -20 42q-31 -47 -72.5 -65t-75.5 -18q-39 0 -73 22q-18 12 -27 22q-3 3 -11 13q-10 -108 54 -206q23 -37 23 -54q-1 -19 -15 -31.5t-32 -12.5q-13 0 -27 7q-21 11 -35 42q-25 56 -25 166 q0 98 12 173q-22 113 -22 246q0 42 9 63q14 32 46 32q15 0 26 -10q23 -20 23 -64q0 -27 -12.5 -131.5t-18.5 -138.5q16 -31 22 -40q29 -40 74 -40q47 0 81 51q32 50 38 142q2 21 2 65q0 4 -0.5 23.5t0 33.5t1 32.5t3.5 33t8 22.5q14 21 40 21q21 0 33 -12q24 -21 24 -90 q0 -124 -31 -214q-7 -21 -19 -43q16 -49 50 -49q18 0 29.5 16t11.5 45q0 14 -2 22z" unicode="µ" horiz-adv-x="562"/>
<glyph glyph-name="paragraph" d="M548 706v-66h-35v-807h-70v807h-132v-807h-70l-1 473q-65 16 -97 47q-58 53 -58 146q0 40 12 75q10 33 39 67.5t81 52.5q35 11 92 12h239z" unicode="¶" horiz-adv-x="667"/>
<glyph glyph-name="periodcentered" d="M171 289q0 -23 -13 -43q-24 -34 -66 -34q-30 0 -50 20q-7 4 -12 15q-14 21 -14 42q0 17 5 27q8 25 28.5 39t45.5 14q12 0 30 -6q48 -21 46 -74z" unicode="·" horiz-adv-x="187"/>
<glyph glyph-name="cedilla" d="M11 -159l52 55h-48v75h91v-83l-95 -99v52z" unicode="¸" horiz-adv-x="208"/>
<glyph glyph-name="guillemotright" d="M107 269l-80 100h100l79 -97l-81 -102h-99zM268 270l-79 99h99l79 -98l-85 -101h-97z" unicode="»"/>
<glyph glyph-name="questiondown" d="M215 524l101 -1q-3 -53 -23 -97q-25 -54 -77 -120q-21 -27 -30.5 -41t-20 -39t-10.5 -49q0 -16 4 -26q7 -25 24 -36t32 -11q13 0 25 6q20 10 26 32t7 73l100 -1q6 -102 -18 -150q-16 -32 -48 -49t-94 -17q-116 0 -156 85q-20 40 -20 87q0 62 40 130q11 18 26.5 39 t26.5 34.5t23.5 28t13.5 15.5q19 24 29.5 44t13 30t5.5 33zM214 702h108v-127h-108v127z" unicode="¿" horiz-adv-x="458"/>
<glyph glyph-name="Agrave" d="M118 700h156l122 -700h-117l-29 189h-105l-26 -189h-116zM160 288h75l-43 330q-4 -81 -12 -162q-7 -75 -20 -168zM210 870l44 -122h-84l-98 122h138z" unicode="À"/>
<glyph glyph-name="Aacute" d="M118 700h156l122 -700h-117l-29 189h-105l-26 -189h-116zM160 288h75l-43 330q-4 -81 -12 -162q-7 -75 -20 -168zM201 870h132l-97 -121h-84z" unicode="Á"/>
<glyph glyph-name="Acircumflex" d="M118 700h156l122 -700h-117l-29 189h-105l-26 -189h-116zM160 288h75l-43 330q-4 -81 -12 -162q-7 -75 -20 -168zM156 871h95l76 -122h-96l-30 67l-43 -67h-85z" unicode="Â"/>
<glyph glyph-name="Atilde" d="M118 700h156l122 -700h-117l-29 189h-105l-26 -189h-116zM160 288h75l-43 330q-4 -81 -12 -162q-7 -75 -20 -168zM273 870h68q0 -1 -1.5 -10.5t-3.5 -22.5t-5 -21q-20 -57 -76 -57q-20 0 -42 8q-42 15 -51 15q-15 0 -21 -5.5t-12 -20.5h-71q2 30 8 50q20 64 81 64 q19 0 42 -8q39 -15 54 -15q13 0 18.5 5t11.5 18z" unicode="Ã"/>
<glyph glyph-name="Adieresis" d="M118 700h156l122 -700h-117l-29 189h-105l-26 -189h-116zM160 288h75l-43 330q-4 -81 -12 -162q-7 -75 -20 -168zM74 871h101v-123h-101v123zM209 871h99v-123h-99v123z" unicode="Ä"/>
<glyph glyph-name="Aring" d="M118 700h156l122 -700h-117l-29 189h-105l-26 -189h-116zM160 288h75l-43 318q-6 -89 -15 -172q-4 -43 -17 -146zM113 824q8 26 32.5 42t52.5 16q33 0 56 -24t23 -58q0 -19 -7 -33q-11 -22 -33.5 -35.5t-47.5 -13.5q-32 0 -56 25t-24 59q1 14 4 22zM176 823 q-10 -9 -10 -24q1 -26 28 -26q12 0 19.5 7.5t7.5 20.5q0 28 -28 28q-10 0 -17 -6z" unicode="Å"/>
<glyph glyph-name="AE" d="M187 700h433v-111h-205v-176h192v-105h-193v-199h215v-111h-334v190h-129l-44 -188h-119zM274 602l-79 -315h101v315h-22z" unicode="Æ" horiz-adv-x="646"/>
<glyph glyph-name="Ccedilla" d="M384 473h-115q-1 11 -1.5 34t-0.5 34q0 48 -22 66q-16 11 -33 11q-15 0 -27 -7q-24 -13 -28 -63q-5 -110 -5 -198q0 -91 3 -184q2 -50 23 -65q13 -13 37 -13q19 0 32 14q6 7 10 15t6 18.5t2.5 17.5t0.5 20.5v17.5q0 11 0.5 32.5t0.5 31.5h114v-99q0 -40 -7 -62 q-11 -42 -48.5 -72t-108.5 -31q-77 0 -119 28q-17 12 -29 27q-15 19 -22 41q-9 28 -11 75q-4 130 -4 197q0 39 2 115q4 67 7 103q6 32 13 49q26 63 112 80q36 4 55 4q57 0 98 -27q21 -15 36 -34q14 -19 20.5 -46t7 -48t1.5 -82zM157 -159l52 55h-48v75h90v-83l-94 -99v52z " unicode="Ç"/>
<glyph glyph-name="Egrave" d="M46 698h323v-107h-205v-179h193v-101h-193v-202h214v-109h-332v698zM210 870l44 -122h-84l-98 122h138z" unicode="È"/>
<glyph glyph-name="Eacute" d="M46 698h323v-107h-205v-179h193v-101h-193v-202h214v-109h-332v698zM201 870h132l-97 -121h-84z" unicode="É"/>
<glyph glyph-name="Ecircumflex" d="M46 698h323v-107h-205v-179h193v-101h-193v-202h214v-109h-332v698zM156 871h95l76 -122h-96l-30 67l-43 -67h-85z" unicode="Ê"/>
<glyph glyph-name="Edieresis" d="M46 698h323v-107h-205v-179h193v-101h-193v-202h214v-109h-332v698zM78 870h102v-122h-102v122zM215 871h100v-123h-100v123z" unicode="Ë"/>
<glyph glyph-name="Igrave" d="M45 702h118v-703h-118v703zM116 870l44 -122h-84l-98 122h138z" unicode="Ì" horiz-adv-x="208"/>
<glyph glyph-name="Iacute" d="M45 702h118v-703h-118v703zM107 870h133l-98 -121h-84z" unicode="Í" horiz-adv-x="208"/>
<glyph glyph-name="Icircumflex" d="M45 702h118v-703h-118v703zM62 871h95l76 -122h-96l-30 67l-43 -67h-84z" unicode="Î" horiz-adv-x="208"/>
<glyph glyph-name="Idieresis" d="M45 702h118v-703h-118v703zM-15 870h102v-122h-102v122zM121 871h100v-123h-100v123z" unicode="Ï" horiz-adv-x="208"/>
<glyph glyph-name="Ntilde" d="M44 702h131q26 -96 44 -155q37 -120 44 -148q17 -64 46 -204q-2 37 -4.5 110t-3.5 105l-1 292h110v-703h-129q-54 176 -77 264q-21 80 -63 262q8 -156 9 -232q3 -98 3 -293h-109v702zM304 870h68q0 -27 -10 -54q-20 -57 -76 -57q-20 0 -42 8q-40 15 -51 15 q-15 0 -21 -5.5t-12 -20.5h-71q4 38 8 50q20 64 81 64q19 0 43 -8q39 -15 53 -15q13 0 18.5 5t11.5 18z" unicode="Ñ" horiz-adv-x="458"/>
<glyph glyph-name="Ograve" d="M34 327q0 58 2 180q2 104 30 141q13 19 38 34q45 27 105 27q29 0 56 -6q90 -17 110 -101q6 -24 7 -113q0 -12 0.5 -36.5t0.5 -37.5q1 -42 1 -126q0 -78 -1 -116q-1 -34 -2.5 -48t-9.5 -37.5t-23 -42.5q-42 -52 -141 -52q-67 0 -110 29q-14 9 -30 29q-16 23 -26 72 q-7 44 -7 204zM153 409v-141q0 -56 1 -83q2 -49 9 -67q14 -32 50 -32q15 0 27 8q19 12 23 50q5 35 5 162q0 31 -0.5 92.5t-0.5 91.5q0 84 -12 107q-16 23 -41 23q-50 0 -58 -55q-3 -18 -3 -156zM220 870l44 -122h-84l-98 122h138z" unicode="Ò" horiz-adv-x="417"/>
<glyph glyph-name="Oacute" d="M34 327q0 58 2 180q2 104 30 141q13 19 38 34q45 27 105 27q29 0 56 -6q90 -17 110 -101q6 -24 7 -113q0 -12 0.5 -36.5t0.5 -37.5q1 -42 1 -126q0 -78 -1 -116q-1 -34 -2.5 -48t-9.5 -37.5t-23 -42.5q-42 -52 -141 -52q-67 0 -110 29q-14 9 -30 29q-16 23 -26 72 q-7 44 -7 204zM153 409v-141q0 -56 1 -83q2 -49 9 -67q14 -32 50 -32q15 0 27 8q19 12 23 50q5 35 5 162q0 31 -0.5 92.5t-0.5 91.5q0 84 -12 107q-16 23 -41 23q-50 0 -58 -55q-3 -18 -3 -156zM212 870h132l-98 -121h-84z" unicode="Ó" horiz-adv-x="417"/>
<glyph glyph-name="Ocircumflex" d="M34 327q0 58 2 180q2 104 30 141q13 19 38 34q45 27 105 27q29 0 56 -6q90 -17 110 -101q6 -24 7 -113q0 -12 0.5 -36.5t0.5 -37.5q1 -42 1 -126q0 -78 -1 -116q-1 -34 -2.5 -48t-9.5 -37.5t-23 -42.5q-42 -52 -141 -52q-67 0 -110 29q-14 9 -30 29q-16 23 -26 72 q-7 44 -7 204zM153 409v-141q0 -56 1 -83q2 -49 9 -67q14 -32 50 -32q15 0 27 8q19 12 23 50q5 35 5 162q0 31 -0.5 92.5t-0.5 91.5q0 84 -12 107q-16 23 -41 23q-50 0 -58 -55q-3 -18 -3 -156zM167 871h94l76 -122h-95l-30 67l-44 -67h-84z" unicode="Ô" horiz-adv-x="417"/>
<glyph glyph-name="Otilde" d="M34 327q0 58 2 180q2 104 30 141q13 19 38 34q45 27 105 27q29 0 56 -6q90 -17 110 -101q6 -24 7 -113q0 -12 0.5 -36.5t0.5 -37.5q1 -42 1 -126q0 -78 -1 -116q-1 -34 -2.5 -48t-9.5 -37.5t-23 -42.5q-42 -52 -141 -52q-67 0 -110 29q-14 9 -30 29q-16 23 -26 72 q-7 44 -7 204zM153 409v-141q0 -56 1 -83q2 -49 9 -67q14 -32 50 -32q15 0 27 8q19 12 23 50q5 35 5 162q0 31 -0.5 92.5t-0.5 91.5q0 84 -12 107q-16 23 -41 23q-50 0 -58 -55q-3 -18 -3 -156zM283 870h68q0 -27 -10 -54q-20 -57 -76 -57q-20 0 -41 8q-43 15 -52 15 q-14 0 -20.5 -6t-12.5 -20h-71q4 38 8 50q20 64 81 64q19 0 43 -8q39 -15 53 -15q13 0 19 5t11 18z" unicode="Õ" horiz-adv-x="417"/>
<glyph glyph-name="Odieresis" d="M93 873h100v-123h-100v123zM227 873h101v-123h-101v123zM34 327q0 58 2 180q2 104 30 141q13 19 38 34q45 27 105 27q29 0 56 -6q90 -17 110 -101q6 -24 7 -113q0 -12 0.5 -36.5t0.5 -37.5q1 -42 1 -126q0 -78 -1 -116q-1 -34 -2.5 -48t-9.5 -37.5t-23 -42.5 q-42 -52 -141 -52q-67 0 -110 29q-14 9 -30 29q-16 23 -26 72q-7 44 -7 204zM153 409v-141q0 -56 1 -83q2 -49 9 -67q14 -32 50 -32q15 0 27 8q19 12 23 50q5 35 5 162q0 31 -0.5 92.5t-0.5 91.5q0 84 -12 107q-16 23 -41 23q-50 0 -58 -55q-3 -18 -3 -156z" unicode="Ö" horiz-adv-x="417"/>
<glyph glyph-name="multiply" d="M455 160l-74 -74l-131 132l-131 -132l-74 74l130 132l-130 132l74 74l131 -132l131 132l74 -74l-132 -132z" unicode="×" horiz-adv-x="500"/>
<glyph glyph-name="Oslash" d="M321 678l27 58l41 -20l-33 -70q24 -40 27 -127q3 -93 3 -186q0 -88 -5 -196q-8 -52 -21 -75q-16 -29 -53.5 -49.5t-95.5 -20.5q-76 0 -135 46l-31 -66l-42 19l46 99q-15 61 -16 139q0 171 1 207q4 91 7 135q7 36 16 56.5t32 39.5q46 39 123 39q59 0 109 -28zM149 542 v-233l117 244q-5 42 -24 56q-14 10 -32 10q-17 0 -33 -11q-24 -17 -28 -66zM272 162v300l-122 -249q2 -83 15 -106q15 -24 46 -24q17 0 30 7q18 9 23.5 25.5t7.5 46.5z" unicode="Ø" horiz-adv-x="417"/>
<glyph glyph-name="Ugrave" d="M47 701h116v-535q0 -50 24 -68q12 -10 32 -10q16 0 31 9q23 17 25 69v535h118v-526q0 -65 -12 -97q-33 -87 -165 -87q-91 0 -134 50q-35 40 -35 138v522zM231 870l44 -122h-85l-97 122h138z" unicode="Ù" horiz-adv-x="437"/>
<glyph glyph-name="Uacute" d="M47 701h116v-535q0 -50 24 -68q12 -10 32 -10q16 0 31 9q23 17 25 69v535h118v-526q0 -65 -12 -97q-33 -87 -165 -87q-91 0 -134 50q-35 40 -35 138v522zM222 870h132l-98 -121h-83z" unicode="Ú" horiz-adv-x="437"/>
<glyph glyph-name="Ucircumflex" d="M47 701h116v-535q0 -50 24 -68q12 -10 32 -10q16 0 31 9q23 17 25 69v535h118v-526q0 -65 -12 -97q-33 -87 -165 -87q-91 0 -134 50q-35 40 -35 138v522zM177 871h94l76 -122h-95l-30 67l-43 -67h-85z" unicode="Û" horiz-adv-x="437"/>
<glyph glyph-name="Udieresis" d="M100 871h101v-123h-101v123zM235 872h101v-124h-101v124zM47 701h116v-535q0 -50 24 -68q12 -10 32 -10q16 0 31 9q23 17 25 69v535h118v-526q0 -65 -12 -97q-33 -87 -165 -87q-91 0 -134 50q-35 40 -35 138v522z" unicode="Ü" horiz-adv-x="437"/>
<glyph glyph-name="germandbls" d="M175 0v88q29 2 38 10t16 37q4 72 4 109q0 18 -5 105q-4 31 -12.5 42t-38.5 26v81q14 2 22 6q25 9 25 41q0 6 -2 22q-1 16 -3.5 25.5t-11 16.5t-23.5 7q-13 0 -22 -5q-16 -9 -16 -48v-562h-107v584q2 22 4.5 34t10 27t20.5 27q34 30 113 30q73 0 106 -33q16 -13 25 -40 q10 -29 10 -84q0 -37 -30 -93q23 -23 30 -37t9 -48q5 -83 5 -150q0 -65 -6 -131q-2 -18 -3 -19q-10 -53 -49 -63q-18 -5 -109 -5z" unicode="ß" horiz-adv-x="375"/>
<glyph glyph-name="agrave" d="M127 364h-99q-1 96 19 126q32 47 119 47q68 0 100 -28q16 -14 22 -38t8 -74v-398h-102v41q-12 -19 -17 -24q-21 -22 -67 -22q-57 0 -80 51q-11 25 -11 109v33q2 35 12 57t35 41q15 12 74 47l10 5t9.5 5t7.5 4.5t7 5.5t5 6t5.5 7.5t3 8.5t2.5 11q2 11 2 19q0 25 -15 35 q-15 5 -20 5q-12 0 -19 -10q-14 -18 -11 -70zM192 270q-7 -6 -28 -23l-3 -2q-3 -2 -6 -5t-7 -6.5t-6 -6.5q-16 -18 -16 -67q0 -13 2 -37q2 -27 13 -37q9 -6 17 -6t16 5q14 10 16 29q4 31 2 156zM185 700l44 -121h-83l-97 121h136z" unicode="à" horiz-adv-x="333"/>
<glyph glyph-name="aacute" d="M127 364h-99q-1 96 19 126q32 47 119 47q68 0 100 -28q16 -14 22 -38t8 -74v-398h-102v41q-12 -19 -17 -24q-21 -22 -67 -22q-57 0 -80 51q-11 25 -11 109v33q2 35 12 57t35 41q15 12 74 47l10 5t9.5 5t7.5 4.5t7 5.5t5 6t5.5 7.5t3 8.5t2.5 11q2 11 2 19q0 25 -15 35 q-15 5 -20 5q-12 0 -19 -10q-14 -18 -11 -70zM192 270q-7 -6 -28 -23l-3 -2q-3 -2 -6 -5t-7 -6.5t-6 -6.5q-16 -18 -16 -67q0 -13 2 -37q2 -27 13 -37q9 -6 17 -6t16 5q14 10 16 29q4 31 2 156zM150 701h135l-96 -122h-83z" unicode="á" horiz-adv-x="333"/>
<glyph glyph-name="acircumflex" d="M127 364h-99q-1 96 19 126q32 47 119 47q68 0 100 -28q16 -14 22 -38t8 -74v-398h-102v41q-12 -19 -17 -24q-21 -22 -67 -22q-57 0 -80 51q-11 25 -11 109v33q2 35 12 57t35 41q15 12 74 47l10 5t9.5 5t7.5 4.5t7 5.5t5 6t5.5 7.5t3 8.5t2.5 11q2 11 2 19q0 25 -15 35 q-15 5 -20 5q-12 0 -19 -10q-14 -18 -11 -70zM192 270q-7 -6 -28 -23l-3 -2q-3 -2 -6 -5t-7 -6.5t-6 -6.5q-16 -18 -16 -67q0 -13 2 -37q2 -27 13 -37q9 -6 17 -6t16 5q14 10 16 29q4 31 2 156zM125 699h94l75 -120h-95l-32 65l-44 -65h-80z" unicode="â" horiz-adv-x="333"/>
<glyph glyph-name="atilde" d="M127 364h-99q-1 96 19 126q32 47 119 47q68 0 100 -28q16 -14 22 -38t8 -74v-398h-102v41q-12 -19 -17 -24q-21 -22 -67 -22q-57 0 -80 51q-11 25 -11 109v33q2 35 12 57t35 41q15 12 74 47l10 5t9.5 5t7.5 4.5t7 5.5t5 6t5.5 7.5t3 8.5t2.5 11q2 11 2 19q0 25 -15 35 q-15 5 -20 5q-12 0 -19 -10q-14 -18 -11 -70zM192 270q-7 -6 -28 -23l-3 -2q-3 -2 -6 -5t-7 -6.5t-6 -6.5q-16 -18 -16 -67q0 -13 2 -37q2 -27 13 -37q9 -6 17 -6t16 5q14 10 16 29q4 31 2 156zM241 699l68 -1q-6 -56 -25 -80q-22 -30 -62 -30q-14 0 -38 8q-40 14 -53 14 q-15 0 -20.5 -5.5t-9.5 -20.5h-74q3 32 9 52q20 62 78 62q23 0 49 -10q33 -13 48 -13q13 0 18.5 5.5t11.5 18.5z" unicode="ã" horiz-adv-x="333"/>
<glyph glyph-name="adieresis" d="M48 698h101v-122h-101v122zM182 699h100v-123h-100v123zM127 364h-99q-1 96 19 126q32 47 119 47q68 0 100 -28q16 -14 22 -38t8 -74v-398h-102v41q-12 -19 -17 -24q-21 -22 -67 -22q-57 0 -80 51q-11 25 -11 109v33q2 35 12 57t35 41q15 12 74 47l10 5t9.5 5t7.5 4.5 t7 5.5t5 6t5.5 7.5t3 8.5t2.5 11q2 11 2 19q0 25 -15 35q-15 5 -20 5q-12 0 -19 -10q-14 -18 -11 -70zM192 270q-7 -6 -28 -23l-3 -2q-3 -2 -6 -5t-7 -6.5t-6 -6.5q-16 -18 -16 -67q0 -13 2 -37q2 -27 13 -37q9 -6 17 -6t16 5q14 10 16 29q4 31 2 156z" unicode="ä" horiz-adv-x="333"/>
<glyph glyph-name="aring" d="M127 364h-99q-1 96 19 126q32 47 119 47q68 0 100 -28q16 -14 22 -38t8 -74v-398h-102v41q-12 -19 -17 -24q-21 -22 -67 -22q-57 0 -80 51q-11 25 -11 109v33q2 35 12 57t35 41q15 12 74 47l10 5t9.5 5t7.5 4.5t7 5.5t5 6t5.5 7.5t3 8.5t2.5 11q2 11 2 19q0 25 -15 35 q-15 5 -20 5q-12 0 -19 -10q-14 -18 -11 -70zM86 665q6 20 16 30q25 31 65 31q18 0 35 -8q16 -6 33.5 -25.5t17.5 -50.5q0 -18 -7 -34q-23 -50 -78 -50q-36 0 -60.5 24.5t-24.5 59.5q0 11 3 23zM192 270q-7 -6 -28 -23l-3 -2q-3 -2 -6 -5t-7 -6.5t-6 -6.5q-16 -18 -16 -67 q0 -13 2 -37q2 -27 13 -37q9 -6 17 -6t16 5q14 10 16 29q4 31 2 156zM164 671q-27 -2 -27 -28q0 -10 7 -20.5t24 -10.5q16 0 23 10.5t7 20.5q0 15 -9.5 22.5t-24.5 5.5z" unicode="å" horiz-adv-x="333"/>
<glyph glyph-name="ae" d="M126 364h-99q-4 32 0 66.5t23 60.5q10 15 27 27q29 20 82 20q41 0 94 -20q50 23 82 23q59 0 97 -34q20 -17 26.5 -42.5t5.5 -77.5v-143h-169v-116q-2 -31 14 -45q9 -9 22 -9q32 1 32 58v54h100v-60q2 -32 -1.5 -51.5t-19.5 -40.5q-12 -16 -29 -25q-30 -16 -88 -16 q-30 0 -54.5 9t-33 15.5t-24.5 21.5q-15 -18 -22 -24q-28 -21 -74 -21q-37 0 -64 20q-17 13 -24.5 35t-8.5 41.5t-1 70.5q0 75 25 105q17 19 54 42q17 11 32 19q5 3 15 8t15 8q23 14 29 36q3 12 3 26q0 39 -35 39q-34 0 -31 -80zM191 147v121q-24 -19 -26 -20 q-10 -5 -23 -18q-16 -20 -16 -73q0 -22 1 -33q1 -18 3 -24q10 -21 27 -21q10 0 20 9q16 16 14 59zM365 322v77q0 22 -3 32q-8 24 -29 24q-12 0 -21 -8q-18 -14 -18 -63v-62h71z" unicode="æ" horiz-adv-x="500"/>
<glyph glyph-name="ccedilla" d="M325 345h-106q0 81 -10 96q-10 12 -28 12q-11 0 -21 -5q-13 -9 -19 -40q-4 -96 -4 -143q0 -24 5 -139q0 -5 2 -15q6 -30 38 -30q25 0 31.5 15.5t6.5 47.5q0 13 0.5 36t0.5 34l106 -1q0 -50 -1 -75q-2 -70 -28 -101q-12 -15 -35 -28q-36 -14 -80 -14q-85 0 -121 46 q-29 36 -31 120q-2 128 -1 165q1 27 5 83q3 28 9 44q22 61 90 77q26 6 55 6q45 0 75 -17.5t43 -38.5q9 -13 12.5 -35t4 -36t1.5 -64zM136 -159l52 55h-48v75h91v-83l-95 -99v52z" unicode="ç" horiz-adv-x="354"/>
<glyph glyph-name="egrave" d="M326 351v-104h-186v-104q2 -40 19 -54q11 -8 23 -8q11 0 21 8q21 15 19 59v44h103q2 -99 -15 -136q-29 -59 -133 -59q-85 0 -119 47q-7 10 -11.5 24t-7.5 24t-4.5 29.5t-1.5 26t-0.5 30t-0.5 25.5v65q0 15 0.5 44.5t0.5 44.5q0 58 7 86q24 94 142 94q10 0 22.5 -1 t14.5 -1q56 -9 81 -45q26 -37 26 -139zM140 326h81v77q-2 31 -15 43q-12 10 -24 10t-22 -7q-7 -5 -11.5 -13t-5.5 -12t-3 -19v-79zM195 700l44 -121h-83l-97 121h136z" unicode="è" horiz-adv-x="354"/>
<glyph glyph-name="eacute" d="M326 351v-104h-186v-104q2 -40 19 -54q11 -8 23 -8q11 0 21 8q21 15 19 59v44h103q2 -99 -15 -136q-29 -59 -133 -59q-85 0 -119 47q-7 10 -11.5 24t-7.5 24t-4.5 29.5t-1.5 26t-0.5 30t-0.5 25.5v65q0 15 0.5 44.5t0.5 44.5q0 58 7 86q24 94 142 94q10 0 22.5 -1 t14.5 -1q56 -9 81 -45q26 -37 26 -139zM140 326h81v77q-2 31 -15 43q-12 10 -24 10t-22 -7q-7 -5 -11.5 -13t-5.5 -12t-3 -19v-79zM160 701h136l-96 -122h-84z" unicode="é" horiz-adv-x="354"/>
<glyph glyph-name="ecircumflex" d="M326 351v-104h-186v-104q2 -40 19 -54q11 -8 23 -8q11 0 21 8q21 15 19 59v44h103q2 -99 -15 -136q-29 -59 -133 -59q-85 0 -119 47q-7 10 -11.5 24t-7.5 24t-4.5 29.5t-1.5 26t-0.5 30t-0.5 25.5v65q0 15 0.5 44.5t0.5 44.5q0 58 7 86q24 94 142 94q10 0 22.5 -1 t14.5 -1q56 -9 81 -45q26 -37 26 -139zM140 326h81v77q-2 31 -15 43q-12 10 -24 10t-22 -7q-7 -5 -11.5 -13t-5.5 -12t-3 -19v-79zM146 699h94l74 -120h-94l-33 65l-43 -65h-80z" unicode="ê" horiz-adv-x="354"/>
<glyph glyph-name="edieresis" d="M326 351v-104h-186v-104q2 -40 19 -54q11 -8 23 -8q11 0 21 8q21 15 19 59v44h103q2 -99 -15 -136q-29 -59 -133 -59q-85 0 -119 47q-7 10 -11.5 24t-7.5 24t-4.5 29.5t-1.5 26t-0.5 30t-0.5 25.5v65q0 15 0.5 44.5t0.5 44.5q0 58 7 86q24 94 142 94q10 0 22.5 -1 t14.5 -1q56 -9 81 -45q26 -37 26 -139zM140 326h81v77q-2 31 -15 43q-12 10 -24 10t-22 -7q-7 -5 -11.5 -13t-5.5 -12t-3 -19v-79zM68 699h100v-121h-100v121zM204 700h99v-122h-99v122z" unicode="ë" horiz-adv-x="354"/>
<glyph glyph-name="igrave" d="M39 530h106v-530h-106v530zM112 700l44 -121h-83l-97 121h136z" unicode="ì" horiz-adv-x="187"/>
<glyph glyph-name="iacute" d="M39 530h106v-530h-106v530zM77 701h135l-96 -122h-83z" unicode="í" horiz-adv-x="187"/>
<glyph glyph-name="icircumflex" d="M39 530h106v-530h-106v530zM52 699h94l75 -120h-95l-32 65l-44 -65h-80z" unicode="î" horiz-adv-x="187"/>
<glyph glyph-name="idieresis" d="M39 530h106v-530h-106v530zM-26 699h101v-121h-101v121zM111 700h99v-122h-99v122z" unicode="ï" horiz-adv-x="187"/>
<glyph glyph-name="ntilde" d="M38 529h104l3 -46q2 2 7 7.5t8 8.5q41 37 84 37q27 0 50 -14q23 -15 30.5 -34t10.5 -53v-435h-108v384q0 33 -17 46q-9 6 -20 6q-14 0 -27 -13q-23 -22 -21 -82v-341h-104v529zM262 699l67 -1q-6 -56 -24 -80q-23 -30 -62 -30q-18 0 -38 8q-40 14 -53 14 q-15 0 -20.5 -5.5t-9.5 -20.5h-74q2 32 9 52q3 13 10 25t25 24.5t43 12.5q22 0 48 -10q35 -13 49 -13q13 0 18.5 5.5t11.5 18.5z" unicode="ñ" horiz-adv-x="375"/>
<glyph glyph-name="ograve" d="M30 238q0 85 1 127v11.5t0.5 12t0.5 11t0.5 11t1.5 10t2 11t2.5 10t3.5 11t5 10.5t6 11q36 59 124 59q95 0 124 -59q6 -12 10 -27t5.5 -31.5t2 -37t0.5 -44.5v-54q0 -16 0.5 -46t0.5 -46q0 -88 -16 -125q-30 -70 -133 -70q-95 0 -124 69q-17 39 -17 176zM213 172v138 q0 53 -1 79q0 28 -8 44q-9 17 -27 17q-29 0 -36 -39q-3 -20 -3 -108q-1 -58 0 -118q0 -72 9 -90q10 -18 29 -18q13 0 20 7q16 14 17 77v11zM195 700l44 -121h-83l-97 121h136z" unicode="ò" horiz-adv-x="354"/>
<glyph glyph-name="oacute" d="M30 238q0 85 1 127v11.5t0.5 12t0.5 11t0.5 11t1.5 10t2 11t2.5 10t3.5 11t5 10.5t6 11q36 59 124 59q95 0 124 -59q6 -12 10 -27t5.5 -31.5t2 -37t0.5 -44.5v-54q0 -16 0.5 -46t0.5 -46q0 -88 -16 -125q-30 -70 -133 -70q-95 0 -124 69q-17 39 -17 176zM213 172v138 q0 53 -1 79q0 28 -8 44q-9 17 -27 17q-29 0 -36 -39q-3 -20 -3 -108q-1 -58 0 -118q0 -72 9 -90q10 -18 29 -18q13 0 20 7q16 14 17 77v11zM160 701h136l-96 -122h-84z" unicode="ó" horiz-adv-x="354"/>
<glyph glyph-name="ocircumflex" d="M30 238q0 85 1 127v11.5t0.5 12t0.5 11t0.5 11t1.5 10t2 11t2.5 10t3.5 11t5 10.5t6 11q36 59 124 59q95 0 124 -59q6 -12 10 -27t5.5 -31.5t2 -37t0.5 -44.5v-54q0 -16 0.5 -46t0.5 -46q0 -88 -16 -125q-30 -70 -133 -70q-95 0 -124 69q-17 39 -17 176zM213 172v138 q0 53 -1 79q0 28 -8 44q-9 17 -27 17q-29 0 -36 -39q-3 -20 -3 -108q-1 -58 0 -118q0 -72 9 -90q10 -18 29 -18q13 0 20 7q16 14 17 77v11zM135 699h95l74 -120h-94l-33 65l-43 -65h-81z" unicode="ô" horiz-adv-x="354"/>
<glyph glyph-name="otilde" d="M30 238q0 85 1 127v11.5t0.5 12t0.5 11t0.5 11t1.5 10t2 11t2.5 10t3.5 11t5 10.5t6 11q36 59 124 59q95 0 124 -59q6 -12 10 -27t5.5 -31.5t2 -37t0.5 -44.5v-54q0 -16 0.5 -46t0.5 -46q0 -88 -16 -125q-30 -70 -133 -70q-95 0 -124 69q-17 39 -17 176zM213 172v138 q0 53 -1 79q0 28 -8 44q-9 17 -27 17q-29 0 -36 -39q-3 -20 -3 -108q-1 -58 0 -118q0 -72 9 -90q10 -18 29 -18q13 0 20 7q16 14 17 77v11zM251 699l68 -1q-6 -56 -24 -80q-24 -30 -63 -30q-17 0 -37 8q-40 14 -53 14q-15 0 -21 -5.5t-10 -20.5h-73q3 36 8 52q20 62 79 62 q22 0 48 -10q35 -13 49 -13q12 0 17.5 5t11.5 19z" unicode="õ" horiz-adv-x="354"/>
<glyph glyph-name="odieresis" d="M58 701h101v-122h-101v122zM192 701h100v-122h-100v122zM30 238q0 85 1 127v11.5t0.5 12t0.5 11t0.5 11t1.5 10t2 11t2.5 10t3.5 11t5 10.5t6 11q36 59 124 59q95 0 124 -59q6 -12 10 -27t5.5 -31.5t2 -37t0.5 -44.5v-54q0 -16 0.5 -46t0.5 -46q0 -88 -16 -125 q-30 -70 -133 -70q-95 0 -124 69q-17 39 -17 176zM213 172v138q0 53 -1 79q0 28 -8 44q-9 17 -27 17q-29 0 -36 -39q-3 -20 -3 -108q-1 -58 0 -118q0 -72 9 -90q10 -18 29 -18q13 0 20 7q16 14 17 77v11z" unicode="ö" horiz-adv-x="354"/>
<glyph glyph-name="divide" d="M320 127q-1 -27 -21.5 -46t-48.5 -19t-47.5 19.5t-19.5 47.5q0 13 6 27q7 18 25 29.5t37 11.5q29 0 49 -20t20 -50zM500 240h-499v102h499v-102zM320 454q0 -29 -20.5 -49t-49.5 -20q-14 0 -28 6q-39 21 -39 63q0 12 4 21q8 22 26.5 34t39.5 12q12 0 21 -4 q16 -5 30.5 -21t15.5 -42z" unicode="÷" horiz-adv-x="500"/>
<glyph glyph-name="oslash" d="M260 509l27 56l38 -16l-33 -67q17 -26 24 -59q5 -87 5 -156q0 -71 -3 -143q-6 -36 -14 -54q-16 -35 -50.5 -54.5t-74.5 -19.5q-48 0 -92 32l-33 -72l-33 17l36 81q-15 25 -21 61q-5 87 -5 155q0 43 2 127q4 38 11.5 59.5t29.5 41.5q40 35 101 35q45 0 85 -24zM137 372 v-60q0 -14 -0.5 -41t-0.5 -41l78 159q0 45 -20 54q-12 4 -21 4q-21 0 -28.5 -17t-7.5 -58zM215 305l-77 -161q0 -30 5 -41q10 -26 34 -26q11 0 18 5q21 13 21 72q0 14 -0.5 42.5t-0.5 43.5q-1 0 -1 32z" unicode="ø" horiz-adv-x="354"/>
<glyph glyph-name="ugrave" d="M41 529h109v-385q-2 -31 12 -43q9 -7 21 -7t22 9q18 15 22 58l5 369h105v-529h-103l-1 46q-56 -52 -104 -52q-26 0 -49 14q-23 16 -30 35.5t-9 53.5v431zM206 700l43 -121h-82l-97 121h136z" unicode="ù" horiz-adv-x="375"/>
<glyph glyph-name="uacute" d="M41 529h109v-385q-2 -31 12 -43q9 -7 21 -7t22 9q18 15 22 58l5 369h105v-529h-103l-1 46q-56 -52 -104 -52q-26 0 -49 14q-23 16 -30 35.5t-9 53.5v431zM171 701h135l-96 -122h-83z" unicode="ú" horiz-adv-x="375"/>
<glyph glyph-name="ucircumflex" d="M41 529h109v-385q-2 -31 12 -43q9 -7 21 -7t22 9q18 15 22 58l5 369h105v-529h-103l-1 46q-56 -52 -104 -52q-26 0 -49 14q-23 16 -30 35.5t-9 53.5v431zM146 699h94l74 -120h-94l-33 65l-43 -65h-80z" unicode="û" horiz-adv-x="375"/>
<glyph glyph-name="udieresis" d="M43 529h107v-385q0 -33 13 -43q7 -7 20 -7q9 0 21 8q19 14 23 59l5 369h106v-529h-103l-1 45q-19 -17 -31 -26t-31.5 -17.5t-40.5 -8.5q-39 0 -67 31q-17 21 -21 74v430zM72 698h101v-121h-101v121zM206 699h101v-123h-101v123z" unicode="ü" horiz-adv-x="375"/>
</font>
</defs>
</svg>
